Скачать через торрент MTV Movie & TV Awards 2018 Фильм бесплатно в хорошем качестве torrent

Скачивайте на UnionPeer.org фильмы через торрент без регистрации. Новинки кино в хорошем качестве через торрент. На UnionPeer.org можно скачать через торрент фильмы 2014 и 2015 годов. Самые новые фильмы.

Скачать торрент MTV Movie & TV Awards 2018 бесплатно через .torrent фильм мультфильм сериал

Статистика раздачи
Размер:  1.57 GB   |    Зарегистрирован:  4 месяца 28 дней   |    .torrent скачан:  41 раз   |   
Раздают:  1  
   
загрузка...
 
Автор Сообщение

Galfimbul

avatar Galfimbul


MTV Movie & TV Awards 2018

Дата/Год выпуска: 2018
Страна: США
Жанр: Церемония Награждения
Продолжительность: 01:11:00
Перевод: Одноголосый закадровый ( Тру Даббинг Студио )
Телеканал: MTV Россия
Автор рипа/записи: ilya2129

Описание: MTV Movie & TV Awards 2018 — 27-я церемония вручения кино- и теленаград канала MTV за 2017 год состоится 18 июня 2018 года. Номинанты были объявлены 3 мая 2018 года. Ведущей церемонии выступит комедийная актриса Тиффани Хэддиш.

качество: DVB
формат: TS/M2TS
Видео: H264; 720x576; 16:9; 2787 kb/s; 25fps
Аудио: MPEG Audio, 192 kbps, 48000 kHz, 2ch
Общее
Идентификатор : 1 (0x1)
Полное имя : E:\TR\MTV Movie & TV Awards 2018 (на русском).ts
Формат : MPEG-TS
Размер файла : 1,57 Гбайт
Продолжительность : 1 ч. 11 м.
Режим общего битрейта : Переменный
Общий поток : 3136 Кбит/сек

Видео
Идентификатор : 209 (0xD1)
Идентификатор меню : 1 (0x1)
Формат : AVC
Формат/Информация : Advanced Video Codec
Профиль формата : High@L3
Настройки формата : CABAC / 4 Ref Frames
Параметр CABAC формата : Да
Параметр RefFrames формата : 4 кадра
Идентификатор кодека : 27
Продолжительность : 1 ч. 11 м.
Битрейт : 2787 Кбит/сек
Ширина : 720 пикселей
Высота : 576 пикселей
Соотношение сторон : 16:9
Частота кадров : 25,000 кадров/сек
Стандарт вещания : Component
Цветовое пространство : YUV
Субдискретизация насыщенности : 4:2:0
Битовая глубина : 8 бит
Тип развёртки : Чересстрочная
Метод сохранения типа развёртки : Раздельные поля
Порядок развёртки : Верхнее поле первое
Бит/(Пиксели*Кадры) : 0.269
Размер потока : 1,39 Гбайт (89%)
Цветовой диапазон : Limited
Основные цвета : BT.601 PAL
Характеристики трансфера : BT.470 System B/G
Коэффициенты матрицы : BT.470 System B/G

Аудио
Идентификатор : 309 (0x135)
Идентификатор меню : 1 (0x1)
Формат : MPEG Audio
Версия формата : Version 1
Профиль формата : Layer 2
Идентификатор кодека : 3
Продолжительность : 1 ч. 11 м.
Вид битрейта : Постоянный
Битрейт : 192 Кбит/сек
Каналы : 2 канала
Частота : 48,0 КГц
Частота кадров : 41,667 кадра/сек (1152 SPF)
Метод сжатия : С потерями
Размер потока : 98,1 Мбайт (6%)
Язык : Russian


Трекер:  [ 23-Июн-2018 09:42 ]

  

Скачать .torrent

Размер .torrent файла 16 KB


Размер: 1.57 GB
Хэш (hash) релиза: 6f5772edead859e410e07318472021810ad4c401
Подписка на обновления:

Торренты, похожие на MTV Movie & TV Awards 2018 скачать торрент

Форум Название Автор Размер S L Добавлен
Развлекательные телепередачи и шоу ·%· MTV Movie & TV Awards 2018 [2018, Церемония Награждения, HDTVRip] Galfimbul 77527408047.22 GB 0 0 1529394128

10:42

19-Июн-18

Еще никто не оставлял запись к записи скачать торрент MTV Movie & TV Awards 2018 . Будь первым!

!Обратная связь