Скачать через торрент Звезды под гипнозом. Второй сезон 1 выпуск Фильм бесплатно в хорошем качестве torrent

Скачивайте на UnionPeer.org фильмы через торрент без регистрации. Новинки кино в хорошем качестве через торрент. На UnionPeer.org можно скачать через торрент фильмы 2014 и 2015 годов. Самые новые фильмы.

Скачать торрент Звезды под гипнозом. Второй сезон 1 выпуск бесплатно через .torrent фильм мультфильм сериал

Статистика раздачи
Размер:  2.46 GB   |    Зарегистрирован:  4 месяца 26 дней   |    .torrent скачан:  50 раз   |   
Раздают:  1  
   
загрузка...
 
Автор Сообщение

Galfimbul

avatar Galfimbul


Звезды под гипнозом. Второй сезон 1 выпуск

Дата/Год выпуска: 24.06.2018
Страна: Россия
Жанр: ТВ-шоу
Продолжительность: 01:29:27
Перевод: Не требуется
Телеканал: Первый канал
Описание: На "Первом канале" самое загадочное и непредсказуемое шоу "Звезды под гипнозом", в котором известные люди переживают внезапные смены настроений и кардинальные изменения в поведении. И всё это - благодаря гипнозу.
"В моей практике это первое шоу, где уснувший зритель - признак успеха!" - шутит Максим Галкин.
Гипнолог Иса Багиров заставит известных людей использовать скрытые возможности сознания. Предварительно знаменитости будут проходить специальный тест, чтобы узнать, насколько хорошо они подвержены гипнозу. Зрителям же предоставляется шанс своими глазами увидеть, как человека вводят в транс, и узнать, какие ощущения и переживания он при этом испытывает.
"Гипноз - это не полное отключение сознания, - объясняет Иса Багиров. - Наоборот, это состояние повышенной чувствительности. Люди все слышат и воспринимают гораздо тоньше, чем когда бодрствуют".
Все розыгрыши принципиально беззлобные. Они никому не принесут вреда, а лишь рассмешат самих участников и зрителей в зале. А для того чтобы у телезрителей не было никаких сомнений в том, что происходящее - чистая правда, Иса Багиров задействует зрителей из зала.
Участники программы, соглашаясь на участие в шоу, никогда не знают наперед, где они окажутся и какая роль им предстоит. В состоянии гипноза после воздействия Исы Багирова люди забывают свое имя, "теряют" нос или недосчитываются пальцев на руке. "То, что мы применяем во время съемок, - это психотехника, которая позволяет снять внутренние блоки, высвободить воображение человека, - говорит Иса Багиров. - В таком состоянии человек может верить в самые невероятные вещи, видеть то, чего нет, и вести себя самым неожиданным образом. Человек может даже на время забыть то, что, казалось, забыть невозможно!"
На эксперимент "Первого канала" отважились: Владимир Сычёв, Анастасия Спиридонова, Елена Бирюкова, Евгений Воскресенский, Сергей Писаренко, Елена Кулецкая, Виктор Чайка, Шура и другие.

качество: IPTVRip720p
формат: MP4
Видео: H264; 1280x720 (16:9); 25.000 fps; 3 800 kb/s
Аудио: AAC, 2 channels, 48000Hz, 128 Кбит/сек
ОбщееПолное имя : Звезды под гипнозом. 24.06.2018.mp4Формат : MPEG-4Профиль формата : Base MediaИдентификатор кодека : isom (isom/iso2/avc1/mp41)Размер файла : 2,46 ГбайтПродолжительность : 1 ч. 29 м.Режим общего битрейта : ПеременныйОбщий поток : 3941 Кбит/сек

ВидеоИдентификатор : 1Формат : AVCФормат/Информация : Advanced Video CodecПрофиль формата : High@L3.1Настройки формата : CABAC / 4 Ref FramesПараметр CABAC формата : ДаПараметр RefFrames формата : 4 кадраИдентификатор кодека : avc1Идентификатор кодека/Информация : Advanced Video CodingПродолжительность : 1 ч. 29 м.Продолжительность оригинала : 1 ч. 29 м.Битрейт : 3800 Кбит/секШирина : 1280 пикселейВысота : 720 пикселейСоотношение сторон : 16:9Режим частоты кадров : ПеременныйЧастота кадров : 25,000 кадров/секМинимальная частота кадров : 6,250 кадров/секМаксимальная частота кадров : 100,000 кадров/секЦветовое пространство : YUVСубдискретизация насыщенности : 4:2:0Битовая глубина : 8 битТип развёртки : ПрогрессивнаяБит/(Пиксели*Кадры) : 0.165Размер потока : 2,37 Гбайт (96%)Размер потока оригинала : 2,37 Гбайт (96%)Библиотека кодирования : x264 core 118mdhd_Duration : 5367600

АудиоИдентификатор : 2Формат : AACФормат/Информация : Advanced Audio CodecПрофиль формата : LCИдентификатор кодека : mp4a-40-2Продолжительность : 1 ч. 29 м.Вид битрейта : ПеременныйБитрейт : 128 Кбит/секМаксимальный битрейт : 242 Кбит/секКаналы : 2 каналаРасположение каналов : Front: L RЧастота : 48,0 КГцЧастота кадров : 46,875 кадров/сек (1024 SPF)Метод сжатия : С потерямиРазмер потока : 81,9 Мбайт (3%)


Трекер:  [ 25-Июн-2018 11:42 ]

  

Скачать .torrent

Размер .torrent файла 12 KB


Размер: 2.46 GB
Хэш (hash) релиза: ad5437293cab2b532d98071d705416bc14f439fb
Подписка на обновления:

Еще никто не оставлял запись к записи скачать торрент Звезды под гипнозом. Второй сезон 1 выпуск . Будь первым!

!Обратная связь