Скачать через торрент Импровизация Фильм бесплатно в хорошем качестве torrent

Скачивайте на UnionPeer.org фильмы через торрент без регистрации. Новинки кино в хорошем качестве через торрент. На UnionPeer.org можно скачать через торрент фильмы 2014 и 2015 годов. Самые новые фильмы.

Скачать торрент Импровизация бесплатно через .torrent фильм мультфильм сериал

Статистика раздачи
Размер:  1.4 GB   |    Зарегистрирован:  4 месяца 24 дня   |    .torrent скачан:  35 раз   |   
Раздают:  1  
   
загрузка...
 
Автор Сообщение

Galfimbul

avatar Galfimbul


Импровизация (выпуск 87-й от 26-06-2018)

Дата/Год выпуска: 2018
Страна: Россия
Жанр: Юмор
Продолжительность: 00:46:23
Перевод: Не требуется
Режиссер: Роман Новиков
Телеканал: ТНТ HD
Ведущий: Павел Воля
Актёры: Арсений Попов, Дмитрий Позов, Сергей Матвиенко, Антон Шастун.

Описание: Здесь нет сценария и всё, происходящее на сцене, придумывается участниками на ходу. Под управлением ведущего Павла Воли четыре комика и звёздный гость окажутся в самых странных ситуациях, из которых будут выбираться с помощью чувства юмора.

качество: HDTV 1080i
формат: MKV
Видео: 1920x1080 (16:9), 25.000 fps, AVC ~4 500 kbps avg
Аудио: AAC, 192 kbps, 48 kHz, 2 ch
GeneralUnique ID : 209723254524112882837862772016133265841 (0x9DC73AC68E7E3A1C989C6809F4F959B1)Complete name : E:\Download\Improvizatsiya 87 vypusk.mkvFormat : MatroskaFormat version : Version 2File size : 1.40 GiBDuration : 46mn 23sOverall bit rate mode : VariableOverall bit rate : 4 317 KbpsEncoded date : UTC 2018-06-27 01:30:30Writing application : mkvmerge v6.1.0 ('Old Devil') built on Mar 4 2013 09:10:42Writing library : libebml v1.3.0 + libmatroska v1.4.0

VideoID : 1Format : AVCFormat/Info : Advanced Video CodecFormat profile : High@L4.0Format settings, CABAC : YesFormat settings, ReFrames : 4 framesFormat settings, GOP : M=2, N=15Codec ID : V_MPEG4/ISO/AVCDuration : 46mn 23sBit rate mode : VariableBit rate : 4 039 KbpsMaximum bit rate : 4 500 KbpsWidth : 1 920 pixelsHeight : 1 080 pixelsDisplay aspect ratio : 16:9Frame rate mode : ConstantFrame rate : 25.000 fpsColor space : YUVChroma subsampling : 4:2:0Bit depth : 8 bitsScan type : ProgressiveBits/(Pixel*Frame) : 0.078Stream size : 1.31 GiB (94%)Default : YesForced : No

AudioID : 2Format : AC-3Format/Info : Audio Coding 3Mode extension : CM (complete main)Format settings, Endianness : BigCodec ID : A_AC3Duration : 46mn 23sBit rate mode : ConstantBit rate : 192 KbpsChannel count : 2 channelsChannel positions : Front: L RSampling rate : 48.0 KHzBit depth : 16 bitsCompression mode : LossyStream size : 63.7 MiB (4%)Default : YesForced : No


Трекер:  [ 27-Июн-2018 06:12 ]

  

Скачать .torrent

Размер .torrent файла 14 KB


Размер: 1.4 GB
Хэш (hash) релиза: 950f553d48528331b9832535a2c82122ec32a55e
Подписка на обновления:

Торренты, похожие на Импровизация скачать торрент

Форум Название Автор Размер S L Добавлен
Развлекательные телепередачи и шоу ·%· Импровизация (выпуск 88-й от 03-07-2018) (Роман Новиков) [2018, Юмор, HDTV 1080i] Galfimbul 15079094721.4 GB 0 0 1530726128

20:42

4-Июл-18

Развлекательные телепередачи и шоу ·· Импровизация (выпуск 78-й от 27-03-2018) (Роман Новиков) [2018, Юмор, HDTVRip] Galfimbul 577234944550 MB 0 0 1528141328

22:42

4-Июн-18

Развлекательные телепередачи и шоу ·· Импровизация (выпуск 78-й от 27-03-2018) (Роман Новиков) [2018, Юмор, HDTV 1080i] Galfimbul 12568547861.17 GB 0 0 1528096329

10:12

4-Июн-18

Развлекательные телепередачи и шоу ·· Импровизация (выпуск 86-й от 29-05-2018) (Роман Новиков) [2018, Юмор, HDTVRip] Galfimbul 588136448561 MB 0 0 1527700328

20:12

30-Май-18

Развлекательные телепередачи и шоу ·· Импровизация (выпуск 86-й от 29-05-2018) (Роман Новиков) [2018, Юмор, HDTV 1080i] Galfimbul 14902784751.39 GB 0 0 1527687729

16:42

30-Май-18

Развлекательные телепередачи и шоу ·· Импровизация (выпуск 85-й от 22-05-2018) (Роман Новиков) [2018, Юмор, HDTVRip] Galfimbul 588431360561 MB 0 0 1527340339

16:12

26-Май-18

Развлекательные телепередачи и шоу ·· Импровизация (выпуск 85-й от 22-05-2018) (Роман Новиков) [2018, Юмор, HDTV 1080i] Galfimbul 15149806021.41 GB 0 0 1527019928

23:12

22-Май-18

Развлекательные телепередачи и шоу ·· Комик в городе / Сезон: 1 / Серии: 1-2 из ??? [2018, ТВ-шоу, юмор, stand-up, импровизация, SATRip] Galfimbul 626094080597 MB 0 0 1520333164

13:46

6-Мар-18

Развлекательные телепередачи и шоу ·· Импровизация [16.11.2017, Юмор, WEB-DL 720p] Galfimbul 13019316661.21 GB 0 0 1510904802

10:46

17-Ноя-17

Развлекательные телепередачи и шоу ·· Импровизация [09.11.2017, Юмор, WEB-DL 720p] Galfimbul 12733020771.19 GB 0 0 1510384502

10:15

11-Ноя-17

Развлекательные телепередачи и шоу ·· Импровизация [02.11.2017, Юмор, WEB-DL 720p] Galfimbul 12791688221.19 GB 0 0 1509992158

21:15

6-Ноя-17

Развлекательные телепередачи и шоу ·· Импровизация 1 - добавлена серия 34 (2016 - 2017) + бонус Galfimbul 4922536397245.84 GB 0 0 1497054120

03:22

10-Июн-17

Развлекательные телепередачи и шоу ·· Импровизация [14.04.2017, Юмор, WEB-DL 720p] Galfimbul 14209275811.32 GB 0 0 1497042945

00:15

10-Июн-17

Развлекательные телепередачи и шоу ·· Импровизация [21.04.2017, Юмор, WEB-DL 720p] Galfimbul 13658989461.27 GB 0 0 1497042829

00:13

10-Июн-17

Развлекательные телепередачи и шоу ·· Импровизация [28.04.2017, Юмор, WEB-DL 720p] Galfimbul 13954427711.3 GB 0 0 1497042765

00:12

10-Июн-17

Развлекательные телепередачи и шоу ·· Импровизация [05.05.2017, Юмор, WEB-DL 720p] Galfimbul 13962900451.3 GB 0 0 1497042728

00:12

10-Июн-17

Развлекательные телепередачи и шоу ·· Импровизация [12.05.2017, Юмор, WEB-DL 720p] Galfimbul 14174661091.32 GB 0 0 1497042687

00:11

10-Июн-17

Развлекательные телепередачи и шоу ·· Импровизация [12.05.2017, Юмор, WEB-DLRip] Galfimbul 750045950715 MB 0 0 1494621546

23:39

12-Май-17

Развлекательные телепередачи и шоу ·· Импровизация 1 - добавлена серия 31 (2016 - 2017) + бонус (исправлены файловые ошибки) Galfimbul 4501588255441.92 GB 0 0 1494128470

06:41

7-Май-17

Еще никто не оставлял запись к записи скачать торрент Импровизация . Будь первым!

!Обратная связь