Скачать через торрент Комик в городе. Саратов Фильм бесплатно в хорошем качестве torrent

Скачивайте на UnionPeer.org фильмы через торрент без регистрации. Новинки кино в хорошем качестве через торрент. На UnionPeer.org можно скачать через торрент фильмы 2014 и 2015 годов. Самые новые фильмы.

Скачать торрент Комик в городе. Саратов бесплатно через .torrent фильм мультфильм сериал

Статистика раздачи
Размер:  655 MB   |    Зарегистрирован:  4 месяца 11 дней   |    .torrent скачан:  41 раз   |   
Раздают:  1  
   
загрузка...
 
Автор Сообщение

Galfimbul

avatar Galfimbul


Комик в городе. Саратов (выпуск 3-й от 11-03-2018)

Дата/Год выпуска: 2018
Страна: Россия
Жанр: Юмор
Продолжительность: 00:21:35
Перевод: Не требуется
Режиссер: Роман Новиков
Телеканал: ТНТ HD
В ролях: Руслан Белый

Описание: Саратову не привыкать к стебу: за два века до появления проекта Комик в городе об этом городе уже написал Грибоедов. Руслан Белый предложил свою интерпретацию высказывания классика. Что изменилось за двести лет в Саратове, как придумали песню про Волку и почему Саратов не стал маленькой Францией – смотрите онлайн бесплатно новом выпуске.

качество: HDTV 1080i
формат: MKV
Видео: 1920x1080 (16:9), 25.000 fps, AVC ~3 967 kbps avg
Аудио: AC3, 192 kbps, 48 kHz, 2 ch
GeneralUnique ID : 222238959560626103853184842381236019763 (0xA731AAAD07AA3F2BAB9DD664DD96A233)Complete name : E:\Download\Komik v gorode.Vypusk 03.Saratov.mkvFormat : MatroskaFormat version : Version 2File size : 655 MiBDuration : 21mn 35sOverall bit rate mode : VariableOverall bit rate : 4 243 KbpsEncoded date : UTC 2018-07-10 04:12:13Writing application : mkvmerge v6.1.0 ('Old Devil') built on Mar 4 2013 09:10:42Writing library : libebml v1.3.0 + libmatroska v1.4.0

VideoID : 1Format : AVCFormat/Info : Advanced Video CodecFormat profile : High@L4.0Format settings, CABAC : YesFormat settings, ReFrames : 4 framesCodec ID : V_MPEG4/ISO/AVCDuration : 21mn 35sBit rate mode : VariableBit rate : 3 967 KbpsMaximum bit rate : 4 500 KbpsWidth : 1 920 pixelsHeight : 1 080 pixelsDisplay aspect ratio : 16:9Frame rate mode : ConstantFrame rate : 25.000 fpsColor space : YUVChroma subsampling : 4:2:0Bit depth : 8 bitsScan type : ProgressiveBits/(Pixel*Frame) : 0.077Stream size : 612 MiB (93%)Default : YesForced : No

AudioID : 2Format : AC-3Format/Info : Audio Coding 3Mode extension : CM (complete main)Format settings, Endianness : BigCodec ID : A_AC3Duration : 21mn 35sBit rate mode : ConstantBit rate : 192 KbpsChannel count : 2 channelsChannel positions : Front: L RSampling rate : 48.0 KHzBit depth : 16 bitsCompression mode : LossyStream size : 29.6 MiB (5%)Default : YesForced : No


Трекер:  [ 10-Июл-2018 07:42 ]

  

Скачать .torrent

Размер .torrent файла 13 KB


Размер: 655 MB
Хэш (hash) релиза: 818b9d1713c84b873e29f932e512786b554b73
Подписка на обновления:

Еще никто не оставлял запись к записи скачать торрент Комик в городе. Саратов . Будь первым!

!Обратная связь