Скачать через торрент Старые Воры VIII: Партизанская Дочка Star Wars: Episode VIII - The Last Jedi Фильм бесплатно в хорошем качестве torrent

Скачивайте на UnionPeer.org фильмы через торрент без регистрации. Новинки кино в хорошем качестве через торрент. На UnionPeer.org можно скачать через торрент фильмы 2014 и 2015 годов. Самые новые фильмы.

Скачать торрент Старые Воры VIII: Партизанская Дочка Star Wars: Episode VIII - The Last Jedi бесплатно через .torrent фильм мультфильм сериал

Статистика раздачи
Размер:  2.1 GB   |    Зарегистрирован:  4 месяца 10 дней   |    .torrent скачан:  32 раза   |   
Раздают:  1  
   
загрузка...
 
Автор Сообщение

Galfimbul

avatar Galfimbul


Старые Воры VIII: Партизанская Дочка / Star Wars: Episode VIII - The Last Jedi

Год выпуска: 2018
Страна: CША
Жанр: комедия, пародия, фантастика, юмористический перевод
Продолжительность: 02:18:00
Перевод: любительский многоголосый (смешной перевод ТО Гонфильм)
Режиссер: Райан Джонсон, Oxid
В ролях: Марк Хэмилл, Кэрри Фишер, Адам Драйвер, Дэйзи Ридли, Джон Бойега, Оскар Айзек, Энди Серкис, Лупита Нионго, Донал Глисон, Энтони Дэниелс, Питер Мейхью, Келли Мари Трэн, Лора Дерн, Бенисио Дель Торо, Фрэнк Оз, Йонас Суотамо, Аманда Лоуренс, Джимми Ви

Описание:
Прямое продолжение фильма «Пятьдесят Оттенков Дрюлика». После уничтожения планеты Скучняк силы Пан-галактического Добра взяли на себя повышенные обязательства по искоренению галактического бандитизма и успешно их несут. Ведь потерявшая драгоценного супруга Донна Лея одним своим существованием ставит под угрозу праведный образ жизни граждан Свободной Галактики, распространяя лживую литературу и выдвигая в сетях собственного лживого кандидата. Дела у неё, правда, идут не слишком хорошо, так как её банковские счета заблокированы и последняя надежда сохранить положение — это не дать Силам Добра завладеть её секретной алмазной шахтой. Тогда как всем известно, что все алмазы в Галактике должны принадлежать только Товарищу Снорку! Чем закончится это эпическое противостояние света и тьмы, мы узнаем в конце, а большую часть фильма будем пялиться на предателя Фина, его плоскую подругу Лучану и врага народа Сковородкина.
И да, самая примитивная фанатская теория в этом фильме вполне может оказаться правдой.

Семпл

Файл
Кодек: XviD
Качество: HDRip
Видео: 720x304 (2.37:1), 23.970 fps, XviD build 64 ~1976 kbps avg, 0.38 bit/pixel
Звук: 48 kHz, MPEG Layer 3, 2 ch, ~192.00 kbps avg

Примечание автора раздачи:
Релиз от Альянса Вольных Переводчиков.
Исходник перемонтирован, добавлены видеофрагменты из других источников, близких к "Звёздным войнам".
Присутствует ненормативная лексика.
GeneralComplete name : D:\_films\Starye.Vory.8.Partizanskaya.dochka.2018.HDRip.aviFormat : AVIFormat/Info : Audio Video InterleaveFormat profile : OpenDMLFile size : 2.10 GiBDuration : 2 h 18 minOverall bit rate : 2 175 kb/s

VideoID : 0Format : MPEG-4 VisualFormat profile : Advanced Simple@L5Format settings, BVOP : 2Format settings, QPel : NoFormat settings, GMC : No warppointsFormat settings, Matrix : Default (MPEG)Codec ID : XVIDCodec ID/Hint : XviDDuration : 2 h 18 minBit rate : 1 971 kb/sWidth : 720 pixelsHeight : 304 pixelsDisplay aspect ratio : 2.35:1Frame rate : 23.976 (23976/1000) FPSColor space : YUVChroma subsampling : 4:2:0Bit depth : 8 bitsScan type : ProgressiveCompression mode : LossyBits/(Pixel*Frame) : 0.376Stream size : 1.90 GiB (91%)Writing library : XviD 64

AudioID : 1Format : MPEG AudioFormat version : Version 1Format profile : Layer 3Codec ID : 55Codec ID/Hint : MP3Duration : 2 h 18 minBit rate mode : ConstantBit rate : 192 kb/sChannel(s) : 2 channelsSampling rate : 48.0 kHzCompression mode : LossyStream size : 190 MiB (9%)Alignment : Split accross interleavesInterleave, duration : 42 ms (1.00 video frame)Writing library : LAMELAME_MAJOR_VERSI


Трекер:  [ 11-Июл-2018 16:42 ]

  

Скачать .torrent

Размер .torrent файла 11 KB


Размер: 2.1 GB
Хэш (hash) релиза: 14d804842a93887df8dfe953a3beeff4b6381829
Подписка на обновления:

Торренты, похожие на Старые Воры VIII: Партизанская Дочка Star Wars: Episode VIII - The Last Jedi скачать торрент

Форум Название Автор Размер S L Добавлен
Зарубежные фильмы 2016-2018 (Новинки зарубежного кино) ·· Старые Воры VIII: Партизанская Дочка / Star Wars: Episode VIII - The Last Jedi (Райан Джонсон, Oxid) [2018, комедия, пародия, фантастика, юмористический перевод, HDRip] Смешной перевод Galfimbul 22516437542.1 GB 0 0 1528039834

18:30

3-Июн-18

Еще никто не оставлял запись к записи скачать торрент Старые Воры VIII: Партизанская Дочка Star Wars: Episode VIII - The Last Jedi . Будь первым!

!Обратная связь