Скачать через торрент Майк Бирбиглия: Слава Богу, есть шутки Mike Birbiglia: Thank God for Jokes Фильм бесплатно в хорошем качестве torrent

Скачивайте на UnionPeer.org фильмы через торрент без регистрации. Новинки кино в хорошем качестве через торрент. На UnionPeer.org можно скачать через торрент фильмы 2014 и 2015 годов. Самые новые фильмы.

Скачать торрент Майк Бирбиглия: Слава Богу, есть шутки Mike Birbiglia: Thank God for Jokes бесплатно через .torrent фильм мультфильм сериал

Статистика раздачи
Размер:  2.21 GB   |    Зарегистрирован:  4 месяца 6 дней   |    .torrent скачан:  40 раз   |   
Раздают:  1  
   
загрузка...
 
Автор Сообщение

Galfimbul

avatar Galfimbul


Майк Бирбиглия: Слава Богу, есть шутки / Mike Birbiglia: Thank God for Jokes

Дата/Год выпуска: 2017
Страна: США
Жанр: Stand-Up Comedy
Произвотство: Netflix
Продолжительность: 01:10:44
Перевод: Студийный (одноголосый закадровый)
Доп. инфо о переводе: D1Production
Русские субтитры: нет

Оригинальная аудиодорожка: английский
Режиссер: Майк Бирбиглия, Сэт Барриш / Mike Birbiglia, Seth Barrish



Описание: Майк Бирбиглия, комик и фильммейкер, рассказывает истории из своей жизни и размышляет на тему плохого и хорошего юмора.



Доп. информация: Реклама отсутствует

Внимание! Присутствует ненормативная лексика.



Сэмпл: http://sendfile.su/1430799

качество: WEBRip
формат: MKV
Видео: AVC (H.264), 1280х720 (16:9), 23,976 fps, 3802 kbps
Аудио: AC-3, 2 ch, 48 kHz, 192 kbps
Аудио 2: AC-3, 6 ch, 48 kHz, 384 kbps
Формат : MatroskaВерсия формата : Version 4 / Version 2Размер файла : 2,21 ГбайтПродолжительность : 1 ч. 10 м.Общий поток : 4467 Кбит/секДата кодирования : UTC 2018-07-15 02:44:59Программа кодирования : mkvmerge v18.0.0 ('Apricity') 64-bitБиблиотека кодирования : libebml v1.3.5 + libmatroska v1.4.8DURATION : 01:10:44.640000000NUMBER_OF_FRAMES : 132645NUMBER_OF_BYTES : 101871360_STATISTICS_WRITING_APP : mkvmerge v18.0.0 ('Apricity') 64-bit_STATISTICS_WRITING_DATE_UTC : 2018-07-15 02:44:59_STATISTICS_TAGS : BPS DURATION NUMBER_OF_FRAMES NUMBER_OF_BYTES

ВидеоИдентификатор : 1Формат : AVCФормат/Информация : Advanced Video CodecПрофиль формата : High@L4.1Параметр CABAC формата : ДаПараметр ReFrames формата : 4 кадраИдентификатор кодека : V_MPEG4/ISO/AVCПродолжительность : 1 ч. 10 м.Битрейт : 3802 Кбит/секШирина : 1280 пикселейВысота : 720 пикселейСоотношение сторон : 16:9Режим частоты кадров : ПостоянныйЧастота кадров : 23,976 кадра/секЦветовое пространство : YUVСубдискретизация насыщенности : 4:2:0Битовая глубина : 8 битТип развёртки : ПрогрессивнаяБит/(Пиксели*Кадры) : 0.172Размер потока : 1,88 Гбайт (85%)Библиотека кодирования : x264 core 148 r2638M 7599210Настройки программы : cabac=1 / ref=4 / deblock=1:-1:-1 / analyse=0x3:0x113 / me=umh / subme=9 / psy=1 / psy_rd=1.00:0.15 / mixed_ref=1 / me_range=16 / chroma_me=1 / trellis=2 / 8x8dct=1 / cqm=0 / deadzone=21,11 / fast_pskip=1 / chroma_qp_offset=-3 / threads=12 / lookahead_threads=1 / sliced_threads=0 / nr=0 / decimate=1 / interlaced=0 / bluray_compat=0 / constrained_intra=0 / bframes=3 / b_pyramid=2 / b_adapt=2 / b_bias=0 / direct=3 / weightb=1 / open_gop=0 / weightp=2 / keyint=250 / keyint_min=23 / scenecut=40 / intra_refresh=0 / rc_lookahead=50 / rc=crf / mbtree=1 / crf=17.0 / qcomp=0.60 / qpmin=0 / qpmax=69 / qpstep=4 / ip_ratio=1.40 / aq=1:1.00Default : ДаForced : НетDURATION : 01:10:44.532000000NUMBER_OF_FRAMES : 101767NUMBER_OF_BYTES : 2063270802_STATISTICS_WRITING_APP : mkvmerge v18.0.0 ('Apricity') 64-bit_STATISTICS_WRITING_DATE_UTC : 2018-07-15 02:44:59_STATISTICS_TAGS : BPS DURATION NUMBER_OF_FRAMES NUMBER_OF_BYTES

Аудио #1Идентификатор : 2Формат : AC-3Формат/Информация : Audio Coding 3Расширение режима : CM (complete main)Параметр Endianness формата : BigИдентификатор кодека : A_AC3Продолжительность : 1 ч. 10 м.Вид битрейта : ПостоянныйБитрейт : 192 Кбит/секКаналы : 2 каналаРасположение каналов : Front: L RЧастота : 48,0 КГцБитовая глубина : 16 битМетод сжатия : С потерямиРазмер потока : 97,2 Мбайт (4%)Default : ДаForced : НетDURATION : 01:10:44.768000000NUMBER_OF_FRAMES : 132649NUMBER_OF_BYTES : 203748864_STATISTICS_WRITING_APP : mkvmerge v18.0.0 ('Apricity') 64-bit_STATISTICS_WRITING_DATE_UTC : 2018-07-15 02:44:59_STATISTICS_TAGS : BPS DURATION NUMBER_OF_FRAMES NUMBER_OF_BYTES

Аудио #2Идентификатор : 3Формат : AC-3Формат/Информация : Audio Coding 3Расширение режима : CM (complete main)Параметр Endianness формата : BigИдентификатор кодека : A_AC3Продолжительность : 1 ч. 10 м.Вид битрейта : ПостоянныйБитрейт : 384 Кбит/секКаналы : 6 каналовРасположение каналов : Front: L C R, Side: L R, LFEЧастота : 48,0 КГцБитовая глубина : 16 битМетод сжатия : С потерямиРазмер потока : 194 Мбайт (9%)Язык : EnglishDefault : НетForced : Нет
Перевод: Physkids
Озвучил: Сергей Щегольков


Трекер:  [ 15-Июл-2018 17:12 ]

  

Скачать .torrent

Размер .torrent файла 22 KB


Размер: 2.21 GB
Хэш (hash) релиза: d9036c8c1427e9a02ce7be58d49c018a837d1043
Подписка на обновления:

Торренты, похожие на Майк Бирбиглия: Слава Богу, есть шутки Mike Birbiglia: Thank God for Jokes скачать торрент

Форум Название Автор Размер S L Добавлен
Развлекательные телепередачи и шоу ·%· Майк Бирбиглия: Слава Богу, есть шутки / Mike Birbiglia: Thank God for Jokes (Майк Бирбиглия, Сэт Барриш / Mike Birbiglia, Seth Barrish) [2017, Stand-Up Comedy, WEBRip] VO (D1Production) + Original (Eng) Galfimbul 754938212720 MB 0 0 1531694530

01:42

16-Июл-18

Еще никто не оставлял запись к записи скачать торрент Майк Бирбиглия: Слава Богу, есть шутки Mike Birbiglia: Thank God for Jokes . Будь первым!

!Обратная связь