Скачать через торрент Комик в городе. Волгоград Фильм бесплатно в хорошем качестве torrent

Скачивайте на UnionPeer.org фильмы через торрент без регистрации. Новинки кино в хорошем качестве через торрент. На UnionPeer.org можно скачать через торрент фильмы 2014 и 2015 годов. Самые новые фильмы.

Скачать торрент Комик в городе. Волгоград бесплатно через .torrent фильм мультфильм сериал

Статистика раздачи
Размер:  759 MB   |    Зарегистрирован:  4 месяца 2 дня   |    .torrent скачан:  35 раз   |   
Раздают:  1  
   
загрузка...
 
Автор Сообщение

Galfimbul

avatar Galfimbul


Комик в городе. Волгоград (выпуск 5-й от 18-03-2018)

Дата/Год выпуска: 2018
Страна: Россия
Жанр: Юмор
Продолжительность: 00:24:34
Перевод: Не требуется
Режиссер: Роман Новиков
Телеканал: ТНТ HD
В ролях: Руслан Белый

Описание: Теплоход юмора «Руслан Белый» добрался и до Волгограда. Этот город не раз переименовывали, но съемочную группу проекта Комик в городе даже этим не удалось запутать. Чем стендапера поразила Родина-мать, почему проблемы здесь решаются несистемно и что делал древний человек на Волге – смотрите онлайн бесплатно в новом выпуске.

качество: HDTV 1080i
формат: MKV
Видео: 1920x1080 (16:9), 25.000 fps, AVC ~4 040 kbps avg
Аудио: AC3, 192 kbps, 48 kHz, 2 ch
GeneralUnique ID : 171660160914816071967602203203363347744 (0x81248B5EDFD4DBA1B7CA7DE2FC2F1D20)Complete name : D:\Humor\Stand Up\Komik v gorode.Vypusk 05.Volgograd.mkvFormat : MatroskaFormat version : Version 2File size : 759 MiBDuration : 24mn 33sOverall bit rate mode : VariableOverall bit rate : 4 318 KbpsEncoded date : UTC 2018-07-18 19:35:24Writing application : mkvmerge v6.1.0 ('Old Devil') built on Mar 4 2013 09:10:42Writing library : libebml v1.3.0 + libmatroska v1.4.0

VideoID : 1Format : AVCFormat/Info : Advanced Video CodecFormat profile : High@L4.0Format settings, CABAC : YesFormat settings, ReFrames : 4 framesCodec ID : V_MPEG4/ISO/AVCDuration : 24mn 33sBit rate mode : VariableBit rate : 4 040 KbpsMaximum bit rate : 1 747 KbpsWidth : 1 920 pixelsHeight : 1 080 pixelsDisplay aspect ratio : 16:9Frame rate mode : ConstantFrame rate : 25.000 fpsColor space : YUVChroma subsampling : 4:2:0Bit depth : 8 bitsScan type : ProgressiveBits/(Pixel*Frame) : 0.078Stream size : 710 MiB (94%)Default : YesForced : No

AudioID : 2Format : AC-3Format/Info : Audio Coding 3Mode extension : CM (complete main)Format settings, Endianness : BigCodec ID : A_AC3Duration : 24mn 33sBit rate mode : ConstantBit rate : 192 KbpsChannel count : 2 channelsChannel positions : Front: L RSampling rate : 48.0 KHzBit depth : 16 bitsCompression mode : LossyStream size : 33.7 MiB (4%)Default : YesForced : No


Трекер:  [ 18-Июл-2018 23:42 ]

  

Скачать .torrent

Размер .torrent файла 15 KB


Размер: 759 MB
Хэш (hash) релиза: 60c4d3642c142e3b17cbc35293d7274b7ac22dea
Подписка на обновления:

Еще никто не оставлял запись к записи скачать торрент Комик в городе. Волгоград . Будь первым!

!Обратная связь