Скачать через торрент 42 Международный фестиваль циркового искусства в Монте-Карло 42 Internationales Zirkusfestival Monte Carlo Фильм бесплатно в хорошем качестве torrent

Скачивайте на UnionPeer.org фильмы через торрент без регистрации. Новинки кино в хорошем качестве через торрент. На UnionPeer.org можно скачать через торрент фильмы 2014 и 2015 годов. Самые новые фильмы.

Скачать торрент 42 Международный фестиваль циркового искусства в Монте-Карло 42 Internationales Zirkusfestival Monte Carlo бесплатно через .torrent фильм мультфильм сериал

Статистика раздачи
Размер:  8.8 GB   |    Зарегистрирован:  4 месяца   |    .torrent скачан:  37 раз   |   
Раздают:  1  
   
загрузка...
 
Автор Сообщение

Galfimbul

avatar Galfimbul


42 Международный фестиваль циркового искусства в Монте-Карло / 42 Internationales Zirkusfestival Monte Carlo

Дата/Год выпуска: 2018
Страна: Германия
Жанр: цирк
Продолжительность: 01:28:00
Перевод: Отсутствует
Русские субтитры: нет

Оригинальная аудиодорожка: немецкий
Субтитры: Немецкий

Телеканал: ARD HD
Описание:

42 Международный фестиваль циркового искусства в Монте-Карло.
Здесь собраны лучшие выступления и артисты получившие премии

01. Приветствие участников фестиваля
02. Jozsef & Merrylu Richter (Ungarn)
03. Michael Ferreri (Spanien)
04. Duo Stauberti (Tschechische Republik)
05. Duo 2-Zen-0 (Kanada)
06. Akrobatik-Truppe der Inneren Mongolei (Innere Mongolei)
07. Truppe Vavilov (Russland)
08. Ballance (Rumanien)
09. The Heroes (Russland)
10. Sergey Prosvirin (Russland)
11. Akrobaten aus Shanghai (China)
12. Jockey-Truppe Jozsef Richter jr. (Ungarn)
13. Evgeny Komisarenko (Russland)
14. Scott & Muriel (USA und Niderland)
15. Truppe Vavilov (Russland)
16. Duo Markov (Russland)
17. Akrobatiktruppe aus Shanghai (China)
18. Leo & Ursula (Portugal und Spanien)
19. Награждение участников фестиваля

качество: HDTV 720p
формат: TS
Видео: AVC, 1280x720 (16:9), 50 fps, 12.6 Mb/s, 0.272 bit/pixel
Аудио: GER, AC3, 48 kHz, 6 ch; 448 kbps
Аудио 2: GER, MP2, 48 kHz, 2 ch; 256 kbps
GeneralID : 1 (0x1)Complete name : C:\42 Международный фестиваль циркового искусства в Монте-Карло.tsFormat : MPEG-TSFile size : 8.80 GiBDuration : 1 h 28 minOverall bit rate mode : VariableOverall bit rate : 14.2 Mb/s

VideoID : 5101 (0x13ED)Menu ID : 10301 (0x283D)Format : AVCFormat/Info : Advanced Video CodecFormat profile : High@L4Format settings : CABAC / 4 Ref FramesFormat settings, CABAC : YesFormat settings, RefFrames : 4 framesFormat settings, GOP : M=8, N=32Codec ID : 27Duration : 1 h 28 minBit rate : 12.6 Mb/sWidth : 1 280 pixelsHeight : 720 pixelsDisplay aspect ratio : 16:9Frame rate : 50.000 FPSColor space : YUVChroma subsampling : 4:2:0Bit depth : 8 bitsScan type : ProgressiveBits/(Pixel*Frame) : 0.272Stream size : 7.77 GiB (88%)

Audio #1ID : 5102 (0x13EE)Menu ID : 10301 (0x283D)Format : MPEG AudioFormat version : Version 1Format profile : Layer 2Codec ID : 3Duration : 1 h 28 minBit rate mode : ConstantBit rate : 256 kb/sChannel(s) : 2 channelsSampling rate : 48.0 kHzFrame rate : 41.667 FPS (1152 SPF)Compression mode : LossyDelay relative to video : -60 msStream size : 162 MiB (2%)Language : German

Audio #2ID : 5103 (0x13EF)Menu ID : 10301 (0x283D)Format : MPEG AudioFormat version : Version 1Format profile : Layer 2Codec ID : 3Duration : 1 h 28 minBit rate mode : ConstantBit rate : 256 kb/sChannel(s) : 2 channelsSampling rate : 48.0 kHzFrame rate : 41.667 FPS (1152 SPF)Compression mode : LossyDelay relative to video : -60 msStream size : 162 MiB (2%)

Audio #3ID : 5106 (0x13F2)Menu ID : 10301 (0x283D)Format : AC-3Format/Info : Audio Coding 3Codec ID : 6Duration : 1 h 28 minBit rate mode : ConstantBit rate : 448 kb/sChannel(s) : 2 channelsChannel positions : Front: L RSampling rate : 48.0 kHzFrame rate : 31.250 FPS (1536 SPF)Bit depth : 16 bitsCompression mode : LossyDelay relative to video : -60 msStream size : 284 MiB (3%)Language : GermanService kind : Complete Main

TextID : 5105 (0x13F1)Menu ID : 10301 (0x283D)Format : DVB SubtitleCodec ID : 6Duration : 1 h 28 minDelay relative to video : 3 s 180 msLanguage : German

OtherID : 5104 (0x13F0)-100Menu ID : 10301 (0x283D)Format : TeletextLanguage : German


Трекер:  [ 20-Июл-2018 21:12 ]

  

Скачать .torrent

Размер .torrent файла 22 KB


Размер: 8.8 GB
Хэш (hash) релиза: 3d6b488636db3144f9a5f7cbe883c18d407d4aee
Подписка на обновления:

Торренты, похожие на 42 Международный фестиваль циркового искусства в Монте-Карло 42 Internationales Zirkusfestival Monte Carlo скачать торрент

Форум Название Автор Размер S L Добавлен
Развлекательные телепередачи и шоу ·%· 42 Международный фестиваль циркового искусства в Монте-Карло / 42 Internationales Zirkusfestival Monte Carlo [2018, цирк, HDTVRip] Galfimbul 74581935416.95 GB 0 0 1532072529

10:42

20-Июл-18

Еще никто не оставлял запись к записи скачать торрент 42 Международный фестиваль циркового искусства в Монте-Карло 42 Internationales Zirkusfestival Monte Carlo . Будь первым!

!Обратная связь