Скачать через торрент Деньги или позор Сезоны: 1-3 из 3 Фильм бесплатно в хорошем качестве torrent

Скачивайте на UnionPeer.org фильмы через торрент без регистрации. Новинки кино в хорошем качестве через торрент. На UnionPeer.org можно скачать через торрент фильмы 2014 и 2015 годов. Самые новые фильмы.

Скачать торрент Деньги или позор Сезоны: 1-3 из 3 бесплатно через .torrent фильм мультфильм сериал

Статистика раздачи
Размер:  11.37 GB   |    Зарегистрирован:  3 месяца 26 дней   |    .torrent скачан:  26 раз   |   
Раздают:  1  
   
загрузка...
 
Автор Сообщение

Galfimbul

avatar Galfimbul


Деньги или позор
Годы выпуска: 2017-2018
Страна: Россия
Жанр: комедия, ТВ-Шоу
Продолжительность: 18x 00:30:00
Режиссёр: Аким Карташов
Телеканал: ТНТ4
Описание: По условиям шоу каждый звездный гость получает на руки 1 миллион рублей, после чего ведущий озвучивает самые откровенные, нелепые, а главное — правдивые факты из их жизни. Если гость не хочет говорить на какую-либо тему, он может откупиться, лишившись денег. В этом случае и происходит главный выбор — деньги или позор.
КиноПоиск | Sample
<div class="post-box-default">
<div class="post-box">Рекламы нет</div>
</div>
Качество: WEB-DL 720p
Формат: MKV
Видео: x264, 1280x720 (16:9), 25.000 fps, ~3550 Kbps avg, 0.154 bit/pixel
Аудио: Русский 44.1 KHz, AAC, 2 channels, ~192.00 kbps avg |Оригинал|
Сборка и работа с видео - whip93.
Первый сезон:
1. Тимур Батрутдинов (от 20 июля 2017 г.)
2. Тимур Родригез (от 27 июля 2017 г.)
3. Стас Ярушин (от 3 августа 2017 г.)
4. Настасья Самбурская (от 10 августа 2017 г.)
5. Мигель (от 17 августа 2017 г.)
6. Вадим Галыгин (от 24 августа 2017 г.)
7. Екатерина Варнава (от 31 августа 2017 г.)
8. Стас Костюшкин (от 7 сентября 2017 г.)
9. Гавр (от 14 сентября 2017 г.)
Второй сезон:
1. Александр Ревва (от 15 января 2018 г.)
2. Роман Юнусов (от 22 января 2018 г.)
3. Елена Беркова (от 29 января 2018 г.)
4. Азамат Мусагалиев (от 5 февраля 2018 г.)
5. Ольга Серябкина (от 12 февраля 2018 г.)
6. Прохор Шаляпин (от 19 февраля 2018 г.)
7. Надежда Сысоева (от 26 февраля 2018 г.)
8. Александр Гудков (от 5 марта 2018 г.)
Третий сезон:
1. Максим Фадеев (от 23 июля 2018 г.)
<div class="post-box-default">
<div class="post-box">Доп. материалы:
1. Кинопробы (не вошедшее в выпуск с Тимуром Родригезом)
2. Лирическое
3. Ответ хейтерам шоу
4. Реклама от спонсора (не вошедшее в выпуск с Вадимом Галыгиным)
5. Дядя Витя ищет гостей в новый сезон шоу
</div>
</div>
General
Unique ID : 295749703893030090973071151593797556959 (0xDE7F52321C452F2C8A7A9EA8C2D59ADF)
Complete name : D:\Фильмы\Деньги или позор - Все выпуски - whip93\Первый сезон\Деньги.или.позор.S01E01.Тимур.Батрутдинов.(от.20.07.17).720p.WEB-DL.AAC2.0.H.264.-whip93.mkv
Format : Matroska
Format version : Version 4 / Version 2
File size : 657 MiB
Duration : 24 min 31 s
Overall bit rate : 3 746 kb/s
Movie name : Деньги или позор (от 20 июля 2017 г.) - Release by whip93
Encoded date : UTC 2018-07-26 10:40:47
Writing application : mkvmerge v22.0.0 ('At The End Of The World') 64-bit
Writing library : libebml v1.3.5 + libmatroska v1.4.8

Video
ID : 1
Format : AVC
Format/Info : Advanced Video Codec
Format profile : High@L3.1
Format settings : CABAC / 1 Ref Frames
Format settings, CABAC : Yes
Format settings, ReFrames : 1 frame
Format settings, GOP : M=1, N=12
Codec ID : V_MPEG4/ISO/AVC
Duration : 24 min 31 s
Bit rate : 3 551 kb/s
Width : 1 280 pixels
Height : 720 pixels
Display aspect ratio : 16:9
Frame rate mode : Constant
Frame rate : 25.000 FPS
Standard : Component
Color space : YUV
Chroma subsampling : 4:2:0
Bit depth : 8 bits
Scan type : Progressive
Bits/(Pixel*Frame) : 0.154
Stream size : 623 MiB (95%)
Title : Mastered by whip93
Language : Russian
Default : Yes
Forced : No
Color range : Limited

Audio
ID : 2
Format : AAC
Format/Info : Advanced Audio Codec
Format profile : LC
Codec ID : A_AAC-2
Duration : 24 min 31 s
Bit rate : 192 kb/s
Channel(s) : 2 channels
Channel positions : Front: L R
Sampling rate : 44.1 kHz
Frame rate : 43.066 FPS (1024 SPF)
Compression mode : Lossy
Stream size : 33.7 MiB (5%)
Language : Russian
Default : Yes
Forced : No


<div class="sp-wrap">
<div class="sp-head folded">Скринлисты</div>
<div class="sp-body">
</div>
</div>
Когда раздача ведётся путём добавления новых серий, при каждом добавлении создаётся новый торрент. Чтобы начать докачку новой серии, пользователям необходимо сделать следующее:
(1) остановить скачивание,
(2) удалить старый торрент у себя из клиента (старые серии удалять не надо),
(3) скачать новый торрент и запустить его у себя в клиенте вместо старого, при этом указать клиенту путь в старую папку, куда и должно происходить скачивание новых серий.
Ваш клиент при этом должен произвести хеширование (проверку) старой папки (если не производит сам - помогите ему сделать это), и будет докачивать только те серии, которых у вас ещё нет. Старые серии при этом не удаляются, а продолжают раздаваться!
Если вы уже удалили старые серии, то предотвратить повторную закачку старых серий можно, отжав галочку в соответствующих местах при запуске нового торрента. По возможности, желательно не удалять старые серии как можно дольше, чтобы релизер не столько продолжал раздавать старые серии, а смог сконцентрироваться на новых.



Трекер:  [ 26-Июл-2018 18:12 ]

  

Скачать .torrent

Размер .torrent файла 64 KB


Размер: 11.37 GB
Хэш (hash) релиза: e9e757d0ae452194c35683ca0ce881b5bfc52698
Подписка на обновления:

Еще никто не оставлял запись к записи скачать торрент Деньги или позор Сезоны: 1-3 из 3 . Будь первым!

!Обратная связь